tbwsbirdtours.co.uk - The Largest Bittorent System Login   |    Register
Latest Articles
Most searched
Hot torrents
Movie Torrents
View Torrent Info: Robin Hood (2018) [720p] [YTS] [YIFY]
View Torrent Info: Ralph Breaks the Internet (2018) [720p] [YTS] [YIFY]
View Torrent Info: Robin Hood (2018) [720p] [YTS] [YIFY]
View Torrent Info: Project Gutenberg (2018) [720p] [YTS] [YIFY]
View Torrent Info: In Like Flynn (2018) [720p] [YTS] [YIFY]
View Torrent Info: The Man Who Killed Hitler and Then The Bigfoot (2018) [720p] [YTS] [YIFY]
View Torrent Info: Scooby-Doo! and the Curse of the 13th Ghost (2019) [720p] [YTS] [YIFY]
View Torrent Info: The Hole in the Ground (2019) [720p] [YTS] [YIFY]
View Torrent Info: The Final Wish (2018) [720p] [YTS] [YIFY]
View Torrent Info: Then Came You (2018) [720p] [YTS] [YIFY]
Hot torrents
TV Torrents
View Torrent Info: The.Flash.2014.S05E13.HDTV.x264-SVA[eztv]
View Torrent Info: The.Big.Bang.Theory.S12E15.HDTV.x264-SVA[eztv]
View Torrent Info: Arrow.S07E13.HDTV.x264-SVA[eztv]
View Torrent Info: star.trek.discovery.s02e04.webrip.x264-tbs[eztv]
View Torrent Info: The.Blacklist.S06E06.HDTV.x264-KILLERS[eztv]
View Torrent Info: Young.Sheldon.S02E15.HDTV.x264-BATV[eztv]
View Torrent Info: Supernatural.S14E13.HDTV.x264-BFF[eztv]
View Torrent Info: Suits.S08E13.HDTV.x264-BFF[eztv]
View Torrent Info: Legacies.S01E10.HDTV.x264-BFF[eztv]
View Torrent Info: The.Walking.Dead.S09E09.HDTV.x264-SVA[eztv]
tbwsbirdtours.co.uk > Categories > Movies torrents > HD torrents


Browse Movies torrents

Polar 2019 1080p NF WEB-DL DD 5.1 x264 [MW] torrent



Download torrent: Download Polar 2019 1080p NF WEB-DL DD 5.1 x264 [MW] torrent Magnet link Bookmark Torrent: Polar 2019 1080p NF WEB-DL DD 5.1 x264 [MW] Polar 2019 1080p NF WEB-DL DD 5.1 x264 [MW] torrent | if not working, try instead: Magnet Link
Info hash: 18181DA5C46B47FA0CF7841134415B7C94C2BDC0
Category: Categories > Movies torrents > HD torrents
Trackers:
9    View all torrent trackers >
Health:
 seeds: 126 ,  leechers: 13 |  Update >
Torrent language:  
Total Size: 1.90 GB
Torrent status: Added by trusted uploader Added by trusted uploader Trusted Uploader Site Friend Superman Sun
Uploader: Trusted Uploader Site Friend Superman Sun
Torrent added: 2019-02-11 11:39:02
 

Download Polar 2019 1080p NF WEB-DL DD 5.1 x264 [MW] torrent if not working, try downloading torrent using Download Polar 2019 1080p NF WEB-DL DD 5.1 x264 [MW] via Magnet Link




Torrent Description





General
Format                                   : Matroska
Format version                           : Version 4
File size                                : 1.91 GiB
Duration                                 : 1 h 58 min
Overall bit rate                         : 2 303 kb/s

Video
ID                                       : 1
Format                                   : AVC
Format/Info                              : Advanced Video Codec
Format profile                           : [email protected]
Format settings                          : CABAC / 4 Ref Frames
Format settings, CABAC                   : Yes
Format settings, RefFrames               : 4 frames
Codec ID                                 : V_MPEG4/ISO/AVC
Duration                                 : 1 h 58 min
Bit rate                                 : 2 000 kb/s
Width                                    : 1 920 pixels
Height                                   : 960 pixels
Display aspect ratio                     : 2.000
Frame rate mode                          : Constant
Frame rate                               : 23.976 (24000/1001) FPS
Color space                              : YUV
Chroma subsampling                       : 4:2:0
Bit depth                                : 8 bits
Scan type                                : Progressive
Bits/(Pixel*Frame)                       : 0.045
Stream size                              : 1.59 GiB (83%)
Writing library                          : x264 core 157 r2935 545de2f

Audio
ID                                       : 2
Format                                   : AC-3
Format/Info                              : Audio Coding 3
Commercial name                          : Dolby Digital
Codec ID                                 : A_AC3
Duration                                 : 1 h 58 min
Bit rate mode                            : Constant
Bit rate                                 : 384 kb/s
Channel(s)                               : 6 channels
Channel layout                           : L R C LFE Ls Rs
Sampling rate                            : 48.0 kHz
Frame rate                               : 31.250 FPS (1536 SPF)
Bit depth                                : 16 bits
Compression mode                         : Lossy
Stream size                              : 327 MiB (17%)
Language                                 : English
Service kind                             : Complete Main
Default                                  : Yes
Forced                                   : No


Click To View Image










#moviezworldz -> To avoid fakes, ALWAYS check that the torrent was added on tbwsbirdtours.co.uk by moviezworldz

http://tbwsbirdtours.co.uk/



Download Polar 2019 1080p NF WEB-DL DD 5.1 x264 [MW] torrent


Comments (please add your comment)
No comments



Home - Browse Torrents - Upload Torrent - Stat - Forum - FAQ - Login
tbwsbirdtours.co.uk is in compliance with copyrights
2006-2018 tbwsbirdtours.co.uk
Sitemapあのこどこのこ うたった【SymaG】.mp3 | Ajouter au panier | Split.Lip.2019.1080p.AMZN.WEB-DL.DDP5.1.H264-CMRG[TGx]